Generation Gifted S01E01 (720p HD, soft Eng subs)

  • Category TV
  • Type HD
  • Language English
  • Total size 1.0 GB
  • Uploaded By ElsonRoa
  • Downloads 51
  • Last checked 5 days ago
  • Date uploaded 5 days ago
  • Seeders 7
  • Leechers 6

Infohash : CFDAA2FDCC60B03BA122ADB9B17D4488908F697C

Generation Gifted S01E01 (720p HD, soft Eng subs)

GCSE preparation begins for the Year 9 students, but the girls each face added pressures.

In Port Talbot, avid reader and top-tier student Anne-Marie knows she wants to go to university, but she suffers from anxiety around her exams. Meanwhile in Tamworth, Shakira's school recognises that she is a talented artist and tries to help her find her creative voice by pushing her out of her comfort zone.

Confidence is less of an issue for Birmingham-based aspiring paediatrician Jada - her determination to ace her Year 9 exams is pinned on her dream of winning a future place at nearby Sixth Form grammar school. But however determined she and her mum are, money may halt her dream.

(with soft subtitles)
First broadcast: 14 February 2018
Duration: 1 hour



Media info:-
General
Format : MPEG-4
Format profile : Base Media
Codec ID : isom (isom/iso2/avc1/mp41)
File size : 1.03 GiB
Duration : 1h 1mn
Overall bit rate mode : Variable
Overall bit rate : 2 393 Kbps
Writing application : Lavf57.25.100

Video
ID : 1
Format : AVC
Format/Info : Advanced Video Codec
Format profile : [email protected]
Format settings, CABAC : Yes
Format settings, ReFrames : 2 frames
Codec ID : avc1
Codec ID/Info : Advanced Video Coding
Duration : 1h 1mn
Bit rate mode : Variable
Bit rate : 2 294 Kbps
Maximum bit rate : 3 500 Kbps
Width : 1 280 pixels
Height : 720 pixels
Display aspect ratio : 16:9
Frame rate mode : Constant
Frame rate : 25.000 fps
Color space : YUV
Chroma subsampling : 4:2:0
Bit depth : 8 bits
Scan type : Progressive
Bits/(Pixel*Frame) : 0.100
Stream size : 1 009 MiB (96%)

Audio
ID : 2
Format : AAC
Format/Info : Advanced Audio Codec
Format profile : LC
Codec ID : 40
Duration : 1h 1mn
Bit rate mode : Variable
Bit rate : 93.4 Kbps
Maximum bit rate : 96.0 Kbps
Channel(s) : 2 channels
Channel positions : Front: L R
Sampling rate : 48.0 KHz
Frame rate : 46.875 fps (1024 spf)
Compression mode : Lossy
Stream size : 41.1 MiB (4%)

Files:

Generation Gifted S01E01
  • Generation Gifted S01E01.mp4 (1.0 GB)
  • Generation Gifted S01E01.jpg (659.4 KB)
  • About this torrent.txt (1.9 KB)
  • Generation Gifted S01E01.srt (123.0 KB)
  • If this torrent is dead.txt (0.1 KB)
  • Torrent Downloaded From 1337x.to.txt (0.0 KB)
  • Torrent Downloaded From Katcr.co - Kickasstorrents.txt (0.1 KB)
  • Torrent_downloaded_from_Demonoid_-_www.demonoid.pw_.txt (0.1 KB)

There are currently no comments. Feel free to leave one :)

Code:

  • udp://tracker.coppersurfer.tk:6969/announce