Queen Victoria's Children S01E02 A Domestic Tyrant (720p HD, soft...

  • Category TV
  • Type HD
  • Language English
  • Total size 1,009.8 MB
  • Uploaded By ElsonRoa
  • Downloads 41
  • Last checked 5 days ago
  • Date uploaded 5 days ago
  • Seeders 6
  • Leechers 2

Infohash : 4355D4B29A74BC3A40A151D70CD4031020181A84

Queen Victoria's Children S01E02 A Domestic Tyrant (720p HD, soft Eng subs)

Queen Victoria and Prince Albert shared a passionate marriage. Behind closed doors, royal domestic life often seemed like a battlefield.

In a 60-year family saga this new three-part series explores the reign of Victoria through her personal relationships with her husband and her nine children. It is a story of manipulation, conflict, intimidation, emotional blackmail, and fevered attempts by her children to escape the clutches of their domineering and needy mother.

The series uses a wealth of written material and photos left by Victoria, Albert and their children, including letters, diaries, memoirs and journals, to bring the subject and characters to life.

This episode concentrates on Victoria's relationship with her daughters. It looks at how, after Albert's death, Victoria clung to and bullied them and arranged their marriages. In response the princesses fought back, becoming independent women determined to find love and fresh purpose. From sculpture to medicine, the daughters became champions of women for a new era.

(with soft subtitles)
First broadcast: 14 February 2018
Duration: 1 hour



Media info:-
General
Format : MPEG-4
Format profile : Base Media
Codec ID : isom (isom/iso2/avc1/mp41)
File size : 1 009 MiB
Duration : 59mn 0s
Overall bit rate mode : Variable
Overall bit rate : 2 390 Kbps
Writing application : Lavf57.25.100


Video
ID : 1
Format : AVC
Format/Info : Advanced Video Codec
Format profile : [email protected]
Format settings, CABAC : Yes
Format settings, ReFrames : 2 frames
Codec ID : avc1
Codec ID/Info : Advanced Video Coding
Duration : 59mn 0s
Bit rate mode : Variable
Bit rate : 2 291 Kbps
Maximum bit rate : 3 500 Kbps
Width : 1 280 pixels
Height : 720 pixels
Display aspect ratio : 16:9
Frame rate mode : Constant
Frame rate : 25.000 fps
Color space : YUV
Chroma subsampling : 4:2:0
Bit depth : 8 bits
Scan type : Progressive
Bits/(Pixel*Frame) : 0.099
Stream size : 967 MiB (96%)

Audio
ID : 2
Format : AAC
Format/Info : Advanced Audio Codec
Format profile : LC
Codec ID : 40
Duration : 59mn 0s
Bit rate mode : Constant
Bit rate : 93.4 Kbps
Channel(s) : 2 channels
Channel positions : Front: L R
Sampling rate : 48.0 KHz
Frame rate : 46.875 fps (1024 spf)
Compression mode : Lossy
Stream size : 39.4 MiB (4%)

Files:

Queen Victoria's Children S01E02 A Domestic Tyrant
  • Queen Victoria's Children S01E02 A Domestic Tyrant.mp4 (1,008.9 MB)
  • If this torrent is dead.txt (0.1 KB)
  • Queen Victoria's Children S01E02 A Domestic Tyrant.jpg (808.7 KB)
  • About this torrent.txt (2.3 KB)
  • Queen Victoria's Children S01E02 A Domestic Tyrant.srt (118.5 KB)
  • Torrent Downloaded From 1337x.to.txt (0.0 KB)
  • Torrent Downloaded From Katcr.co - Kickasstorrents.txt (0.1 KB)
  • Torrent_downloaded_from_Demonoid_-_www.demonoid.pw_.txt (0.1 KB)

There are currently no comments. Feel free to leave one :)

Code:

  • udp://tracker.coppersurfer.tk:6969/announce