DCs.Legends.of.Tomorrow.3x02.Fenomeni.Da.Baraccone.ITA.ENG.1080p....

  • Category TV
  • Type HD
  • Language English
  • Total size 4.2 GB
  • Uploaded By ppb1
  • Downloads 109
  • Last checked 1 week ago
  • Date uploaded 1 week ago
  • Seeders 50
  • Leechers 62

Infohash : 37D8CB2209BE67061ABA01E68CED2934C8247628



GIUSEPPEiCV & LITTLELINX
HANNO IL PIACERE DI PRESENTARE


STAGIONE 3
WEB-DLMUX 1080p
Dual Language ITA - ENG
Sub ITA - ENG




.: Dati Serie :.

Nazione : Stati Uniti d'America, Regno Unito
Anno : 2017
Genere : supereroi, azione, avventura, drammatico, fantascienza
Stagione 3
Episodi : 18
Durata : 43 min circa
Lingua : ITA - ENG
Cast :
• Caity Lotz: Sara Lance/White Canary
• Victor Garber: Professor Martin Stein/Firestorm
• Brandon Routh: Ray Palmer/Atom
• Franz Drameh: Jefferson "Jax" Jackson/Firestorm
• Ciara Renée: Kendra Saunders/Hawkgirl
• Falk Hentschel: Carter Hall/Hawkman/principe gufu
• Amy Pemberton: Gideon
• Dominic Purcell: Mick Rory/Heat Wave
• Wentworth Miller: Leonard Snart/Captain Cold
• Arthur Darvill: Rip Hunter
• Matt Letscher: Eobard Thawne/Reverse Flash
• Maisie Richardson-Sellers: Amaya Jiwe/Vixen
• Nick Zano: Nathan "Nate" Heywood/Steel
• Tala Ashe: Zari Adrianna Tomaz
• Matt Ryan: John Constantine
• John Noble: Mallus

Focuses on time-traveling rogue Rip Hunter, who has to recruit a rag-tag team of heroes and villains to help prevent an apocalypse that could impact not only Earth, but all of time.

Le Leggende si ritrovano nel 2017, in un mix di passato, presente e futuro in cui i dinosauri vivono in una Los Angeles dove il Big Ben appare di fianco ai grattacieli. Questa distorsione temporale è stata causata dal viaggio nel tempo compiuto dalle leggende nella scorsa stagione, per sconfiggere la Legione del Destino. La squadra ha infranto, infatti, la prima regola di chi viaggia nel tempo: mai visitare un luogo nello stesso tempo due volte. Così facendo ha sconvolto la linea spazio-temporale e creato una serie di anacronismi, sparpagliando animali, persone e oggetti in giro nel tempo. Il nostro team dovrà trovare un modo per mettere a posto tutti i pezzi, prima che il tempo collassi totalmente.

“DC's Legends of Tomorrow” è una serie statunitense di CW, trasmessa in America dal 2016 e sviluppata da Greg Berlanti, Marc Guggenheim e Andrew Kreisberg. La serie è uno spin-off delle serie tv Arrow e The Flash.
L'ottavo episodio di questa stagione è la quarta ed ultima parte un nuovo crossover con i rispettivi ottavi episodi della sesta stagione di Arrow, della terza stagione di Supergirl e della quarta stagione di The Flash.


.: Screenshot :.



.: Caratteristiche Tecniche :.
[spoiler]
DCs.Legends.of.Tomorrow.3x01.Anacronismo.ITA.ENG.1080p.AMZN.WEB-DLMux.x264-Morpheus.mkv
Format                                   : Matroska
Format version                           : Version 4 / Version 2
File size                                : 3.87 GiB
Duration                                 : 40mn 38s
Overall bit rate mode                    : Variable
Overall bit rate                         : 13.6 Mbps
Encoded date                             : UTC 2018-01-31 01:02:15
Writing application                      : mkvmerge v7.6.0 ('Garden of Dreams') 64bit built on Feb  8 2015 15:12:28
Writing library                          : libebml v1.3.1 + libmatroska v1.4.2
DURATION                                 : 00:40:38.400000000
NUMBER_OF_FRAMES                         : 76200
NUMBER_OF_BYTES                          : 117043200
_STATISTICS_WRITING_APP                  : mkvmerge v7.6.0 ('Garden of Dreams') 64bit built on Feb  8 2015 15:12:28
_STATISTICS_WRITING_DATE_UTC             : 2018-01-31 01:02:15
_STATISTICS_TAGS                         : BPS DURATION NUMBER_OF_FRAMES NUMBER_OF_BYTES

Video
ID                                       : 1
Format                                   : AVC
Format/Info                              : Advanced Video Codec
Format profile                           : [email protected]
Format settings, CABAC                   : Yes
Format settings, ReFrames                : 4 frames
Codec ID                                 : V_MPEG4/ISO/AVC
Duration                                 : 40mn 38s
Bit rate mode                            : Variable
Bit rate                                 : 12.8 Mbps
Maximum bit rate                         : 15.0 Mbps
Width                                    : 1 920 pixels
Height                                   : 1 080 pixels
Display aspect ratio                     : 16:9
Frame rate                               : 25.000 fps
Original frame rate                      : 23.976 fps
Color space                              : YUV
Chroma subsampling                       : 4:2:0
Bit depth                                : 8 bits
Scan type                                : Progressive
Bits/(Pixel*Frame)                       : 0.247
Stream size                              : 3.63 GiB (94%)
Default                                  : Yes
Forced                                   : No
Color primaries                          : BT.709-5, BT.1361, IEC 61966-2-4, SMPTE RP177
Transfer characteristics                 : BT.709-5, BT.1361
Matrix coefficients                      : BT.709-5, BT.1361, IEC 61966-2-4 709, SMPTE RP177

Audio #1
ID                                       : 2
Format                                   : AC-3
Format/Info                              : Audio Coding 3
Mode extension                           : CM (complete main)
Codec ID                                 : A_AC3
Duration                                 : 40mn 38s
Bit rate mode                            : Constant
Bit rate                                 : 192 Kbps
Channel(s)                               : 2 channels
Channel positions                        : Front: L R
Sampling rate                            : 48.0 KHz
Bit depth                                : 16 bits
Compression mode                         : Lossy
Stream size                              : 55.8 MiB (1%)
Title                                    : ITA
Language                                 : Italian
Default                                  : Yes
Forced                                   : Yes

Audio #2
ID                                       : 3
Format                                   : AC-3
Format/Info                              : Audio Coding 3
Mode extension                           : CM (complete main)
Codec ID                                 : A_AC3
Duration                                 : 40mn 38s
Bit rate mode                            : Constant
Bit rate                                 : 384 Kbps
Channel(s)                               : 6 channels
Channel positions                        : Front: L C R, Side: L R, LFE
Sampling rate                            : 48.0 KHz
Bit depth                                : 16 bits
Compression mode                         : Lossy
Stream size                              : 112 MiB (3%)
Title                                    : ENG
Language                                 : English
Default                                  : No
Forced                                   : No

Text #1
ID                                       : 4
Format                                   : UTF-8
Codec ID                                 : S_TEXT/UTF8
Codec ID/Info                            : UTF-8 Plain Text
Title                                    : ITA - Forced
Language                                 : Italian
Default                                  : Yes
Forced                                   : Yes

Text #2
ID                                       : 5
Format                                   : UTF-8
Codec ID                                 : S_TEXT/UTF8
Codec ID/Info                            : UTF-8 Plain Text
Language                                 : Italian
Default                                  : No
Forced                                   : No

Text #3
ID                                       : 6
Format                                   : UTF-8
Codec ID                                 : S_TEXT/UTF8
Codec ID/Info                            : UTF-8 Plain Text
Language                                 : English
Default                                  : No
Forced                                   : No

[/spoiler]

.: Ringraziamenti :.




RESTATE IN SEED ALTRIMENTI

 



Files:

  • DCs.Legends.of.Tomorrow.3x02.Fenomeni.Da.Baraccone.ITA.ENG.1080p.AMZN.WEB-DLMux.H.264-Morpheus.mkv (4.2 GB)

There are currently no comments. Feel free to leave one :)

Code:

  • http://tracker.tntvillage.scambioetico.org:2710/announce
  • udp://tracker.opentrackr.org:1337/announce
  • udp://9.rarbg.me:2710/announce
  • udp://tracker.leechers-paradise.org:6969/announce
  • http://tracker.tfile.me/announce
  • udp://explodie.org:6969/announce
  • udp://public.popcorn-tracker.org:6969/announce
  • http://torrentsmd.com:8080/announce